Skip to main content

Futurebirds Live at Hi-Ho Lounge on 2011-03-13




Futurebirds
2011-03-13
Hi-Ho Lounge
New Orleans, LA.


Source: SBD + On-stage Audience Matrix
SBD Source: Behringer Eurodesk 2200 (RCA Out) > Edirol R-44 @ 24/48
Aud Source: AKG CK1X > MK46 > Apogee Mini-me > Edirol R-44 @ 24/48
Location: On-stage/DFC/DIN @ 3ft
DSP: SDHC > Wavelab 5 (Fades/EQ/Edit/Mix) > CDWave > Wavelab 5 (Dither/Re-Sample) > TLH > FLAC (8)
Recorded & Seeded by Nick Burlison


01. Intro
02. Johnny Utah
03. APO
04. Battle For Rome
05. Dirty D
06. Via Flamina
07. The Doewg
08. Red Top Girls
09. Sam Jones
10. Ski Chalet
11. Wild Heart
12. Dead Flowers *


* with members of the Glory Fires on vocals


[Lee Bains III and the Glory Fires were also on the bill; Part of the 3 day Foburg fest and a stop on their journey to SXSW]


Collection Futurebirds
Band/Artist Futurebirds
Venue Hi-Ho Lounge
Location New Orleans, LA.

Source Source: SBD + On-stage Audience Matrix
Lineage SDHC > Wavelab 5 (Fades/EQ/Edit/Mix) > CDWave > Wavelab 5 (Dither/Re-Sample) > TLH > FLAC (8)
Taped by Nick Burlison
Transferred by Nick Burlison

Notes

shntool info:

length expanded size cdr WAVE problems fmt ratio filename
0:57.31 10127756 B --- -- ---xx flac 0.4099 futurebirds2011-03-13t01.flac
6:11.70 65609084 B --- -- ---xx flac 0.5555 futurebirds2011-03-13t02.flac
6:12.62 65766668 B --- -- ---xx flac 0.5543 futurebirds2011-03-13t03.flac
5:27.62 57828668 B --- -- ---xx flac 0.5432 futurebirds2011-03-13t04.flac
7:01.47 74374988 B --- -- ---xx flac 0.5644 futurebirds2011-03-13t05.flac
6:07.04 64748252 B --- -- ---xx flac 0.5539 futurebirds2011-03-13t06.flac
3:27.14 36547772 B --- -- ---xx flac 0.5606 futurebirds2011-03-13t07.flac
6:01.36 63765116 B --- -- ---xx flac 0.5338 futurebirds2011-03-13t08.flac
6:37.36 70115516 B --- -- ---xx flac 0.5428 futurebirds2011-03-13t09.flac
7:29.11 79229516 B --- -- ---xx flac 0.5750 futurebirds2011-03-13t10.flac
4:58.26 52628396 B --- -- ---xx flac 0.5593 futurebirds2011-03-13t11.flac
5:52.33 62170460 B --- -- ---xx flac 0.6435 futurebirds2011-03-13t12.flac
66:24.57 702912192 B 0.5604 (12 files)

Reviews

Reviewer: shipcamein - - July 4, 2011
Subject: THANKS!
About time these guys showed up on here!!

Thank you so much for taping and esp. the SBD... It sounds fantastic
Reviewer: jayneclamp - - June 27, 2011
Subject: Yo
Thanks Nick! Hope all is well!
PEOPLE ALSO FOUND
Futurebirds
by Futurebirds
141
0
0
Source: Schoeps MK4V > KC5 > CMC6 > Sound Devices 744T (24bit/48kHz)
Futurebirds
by Futurebirds
628
0
1
( 1 reviews )
Source: SBD + Schoeps MK4V > KC5 > CMC6 > Sound Devices 744T (24bit/48kHz)
Futurebirds
by Futurebirds
373
0
0
Source: Schoeps MK4V > KC5 > CMC6 > Sound Devices 722 (24bit/48kHz)
Futurebirds
by Futurebirds
278
0
0
Source: SBD + Schoeps MK4V > KC5 > CMC6 > Sound Devices 744T (24bit/48kHz)
Futurebirds
by Futurebirds
968
0
0
Source: Matrix: SBD + Schoeps MK4V > KC5 > CMC6 > Sound Devices 744T (24bit/48kHz)
Futurebirds
by Futurebirds
510
0
0
Source: SBD + Schoeps MK4V > KC5 > CMC6 > Sound Devices 744T
Futurebirds
by Futurebirds
349
0
0
Source: SBD + DPA 4022 > Sonosax SX-M2 > USBPre2 > Edirol R-44 (24bit/48kHz)
Futurebirds
by Futurebirds
447
0
0
Source: Schoeps CCM4Vs (DIN) > Lunatec V2 > Benchmark AD2K > Sound Devices 722 (24bit/48kHz)
Futurebirds
by Futurebirds
412
0
0
Source: Schoeps MK4V > KC5 > CMC6 > Sound Devices 722 (24bit/48kHz)
Futurebirds
by Futurebirds
807
0
1
( 1 reviews )
Source: Schoeps MK4V > KC5 > CMC6 > Sound Devices 722 (24bit/48kHz)